Out of Body NEEDTOBREATHE MP3 Music. Related Blog Posts. mp3 (4:17)Slipknot - (sic). mp3 30-Jan-2008 20:35 ACDC - She Shook Me All Night Long(Remix featuring Bon Jovi, Metallica, Nirvana, Def Leppard, Van Halen, and Guns N' Roses). The first track is a never before released demo from Little Boy Blue & The Blue Boys. Note that the compression ratios of all lossless codecs falls in a quite narrow range; the difference between the very best and very worst is only around 7%, and only 4% for the practical codecs. 1 kHz (Tracks) Artist: Mathusalemherod Title: Discography (2018-2020) Released: 2020 Style: Power Electronic, Industrial, Ambient RAR Size: 894 Mb Tracklist & Download Links. Nuclear Blast, one of the world leading Heavy Metal Online-Shops is the number one when it comes to ordering CDs, Vinyl, T-Shirts, DVDs and Tickets, as well as accessories such as Band Shirts, Girlies, Accessoires and a lot more from the Heavy Metal scene. Responsible for bringing the genre back to Earth, the bandmates. [16 Bit - 44. Torrent: Metalllica - Metallica (The Black Album) (1991). Metallica – Master Of Puppets Remastered Expanded Edition Released: 2017 Genre: Metal Bitrate: FLAC & MP3 320 KBPS. org 478 MB 2010. Metallica & The San Francisco Symphony - S&M 2 (2020) + Blu-Ray + BDRip; Napalm Death - Throes of Joy in the Jaws of Defeatism (2020) filecrypt + turbobit have some problems; Ensiferum - Thalassic (Deluxe Edition) (2020) Static-X - Project Regeneration, Vol. Someone told me next year!!!. 99 prebeta 5 from 4. Find Metallica discography, albums and singles on AllMusic. Scene FLAC Music, muzik, musik scene Club, sets mix, music mp3s, WEB 320kbps Tracks, Private FTP Server, Muaix VIP, Dance Hits, 90s Various artists VA, EDM Live Radio, Music Stream, Electro House, Club Dance Music Mix, Electro House, Deep House, Chill Out, Trap, Bounce and much more. MQA and FLAC are lossless encodings derived directly from our original production masters. Metallica - Nothing Else Matters. 100 [info] Input #0, flac, from '02 - Sad But True. Interview, Keith Relf - 00:56 03. 6M: 003) Lynyrd Skynyrd - Freebird. 0 % Track quality 100. S&M2 Metallica and San Francisco Symphony MP3 Music. Metallica - Death Magnetic (2008, Remastered 2014). Amazon| Homepage. Head of the Snake 05. Anette Maiburg, Alexandra Cravero, Emmanuel Ceysson, Karina Buschinger, Wen Xiao Zheng, Guido Schiefen, Mathias Haus. 99 prebeta 5 from 4. The band was formed in 1981 in Los Angeles by vocalist/guitarist James Hetfield and drummer Lars Ulrich, and has been based in San Francisco for most of its career. com ArtWork: not included Size. 61 KB 01 Frantic. After the misfire that was St. com you can download lossless music in popular formats FLAC, APE, ALAC, MP3, M4A. flac': [info] Metadata: [info] ALBUM : Metallica (Studio Master 24bit/96kHz) [info] album_artist : Metallica [info] ARTIST : Metallica [info] GENRE : Pop/Rock [info] HDTRACKS : www. CD2/ 01 – Through the Never. 2016) flac 16b + [email protected] necrocoital amputorgy 2. wav Pre-gap length 0:00:02. flac" WAVE TRACK 07 AUDIO TITLE "I Wish It Would Rain Down" PERFORMER "Phil Collins" INDEX 01 00:00:00 FILE "Music/FLAC/Phil Collins/But Seriously/1-04-FLAC-Something Happened On The Way To Heaven-04-51. 0 beta 3 from 29. Le troisième album de Metallica est un condensé compact et puissant de maîtrise technique, créativité et de riffs légendaires. Apocalyptica - Plays Metallica by Four Cellos - A Live Performance (2018) FLAC Metallica - 2018-05-07- Stockholm, Sweden (2018) Hi-Res Metallica - The $5. Metallica - Kill 'Em All [5 CD] (2016) FLAC Label: Blackened Recordings [BLCKND003RD-1] Country: USA Genre: Heavy Metal, Thrash Metal Quality: FLAC (*i. Metallica (commonly known as The Black Album) is the fifth studio album by American heavy metal band Metallica, released on August 12, 1991, through Elektra Records. Looking for a CD for my car - looking for a mix of metal songs on one CD if possible. mp3 03 – Fade to Black. AAC 256 kbps via Mega (Link) whose ouster from Metallica gave rise to an improbably long career with Megadeth, It is an index to content. Related Blog Posts. Art Is Dead 04. mp3: 26-Jul-2008 19:50 : 1. 1, DVD, FLAC, APE | Archive of surround sound and lossless music for free. info open music storage - [ Traduzca esta página ] Slipknot - Live At Dynamo 2000 Year: 2000 Genre: Alternative Track list: Slipknot - 742617000027. Tracklist: 01 – Enter Sandman (Live In Mexico City) 02 – Creeping Death (Live In Mexico City) 03 – Harvester Of Sorrow (Live In Mexico City). Upon His Return 2. File sizes are much larger than MP3s. FLAC is an excellent format of music, yes, but you don't want "true FLAC". HAZRAT ALI AS JANG_E_UHD ME Jang e Uhd Me Hazrat ALI as K Kirdar Ka Jaeza 2 Marahil Yani Musalmano Ki Fatih Or Shikast K Pas e Manzar. Read more here. mp3: Autograph: Turn Up the Radio: Monsters of Rock, Metal: MPEG 1 Layer III: Badlands - Dreams in the Dark. 98 EP: Garage Days Re-Revisited [Japanese] (2018) FLAC. On various conversion and ripping software I notice when going to flac that a number (usually 5) is selectable; which I'm assuming is some sort of compression algorithm. The Gallery by Dark Tranquillity, released 27 November 1995 1. Anette Maiburg, Alexandra Cravero, Emmanuel Ceysson, Karina Buschinger, Wen Xiao Zheng, Guido Schiefen, Mathias Haus. net subscription. Origen: Los Ángeles, California, Estados Unidos Género(s): Heavy Metal // Thrash Metal // Hard rock. The premier hillbilly parody act get the Bear Family Records red carpet treatment with this CD reissue of the label's 1989 vinyl compilation. flac" WAVE TRACK 09 AUDIO TITLE "Enter Sandman" ISRC GBAMC9900023 INDEX 01 00:00:00 FILE "10 - Battery. HDtracks high resolution music downloads. A Premium subscription allows you to enjoy additional benefits to the free service that Rapidgator offers. Quality: FLAC 24 bit / 44. zip files 2) extracted all files from. mp3 05 – Seek & Destroy. The Very Best Of Jimmy Somerville, Bronski Beat & The Communards + [FLAC] Fazıl Say-Mozart: Complete Piano Sonatas; VA - 30 Pop Classics on Piano (2015) Olivier Chauzu & Jean-Pierre Armengaud-Debussy: Four-Hand Piano Music; VA - SHE Love Sorrows on a Piano (2014) Metallica - Discographie (1983 - 2012) Love Suggestions-Piano Night. Exact Audio Copy V0. 1 kHz (Tracks) Artist: Mathusalemherod Title: Discography (2018-2020) Released: 2020 Style: Power Electronic, Industrial, Ambient RAR Size: 894 Mb Tracklist & Download Links. rar) of a single artist, as well as albums with various artists such as the Now series of compilations (with VA tag); lossless is a class of data compression algorithms that allows the exact original data to be reconstructed from the compressed data, meaning that. Torrent: Metalllica - Metallica (The Black Album) (1991). 61 KB 01 Frantic. mp3 04 – Master of Puppets. FLAC via Mega (Link). The album was produced by Rick Rubin, marking the band's first album since And Justice for All (1988) not to be produced by longtime collaborator Bob Rock. Actually starting out on some metallica is not that bad of an idea, Kirk uses alot of scales and classical techniques that will come in real handy when you start to really get into guitar. FLAC decoding is the fastest among lossless codecs and its compression is within 3% of even the most complex codecs. Metallica - Bootleg Tracks - 06 - Hunger. Preview, buy and download high-quality music downloads of Metallica by Metallica from 7digital Norge - We have over 30 million high quality tracks in our store. Important Notice! Someone tried to vandalise the database by deleting about 76k entries. Metallica 'Ride The Lightning Demo' (2010 Not On Label : R-11-21 Source: 12" Vinyl LP Studio Soundboard Recordings Encoded: FLAC. January 2013, 17:39. Actually starting out on some metallica is not that bad of an idea, Kirk uses alot of scales and classical techniques that will come in real handy when you start to really get into guitar. 01 MB | File count : 17 | Time : 2015-08-12 00 Metallica album art 01. Trading Death Debut EP of the two-man death metal band Inert. Head of the Snake 05. mp3 05 – Seek & Destroy. flac" WAVE TRACK 01 AUDIO PERFORMER "Metallica" ISRC GBCBR1200300 INDEX 01 41:31:24 TRACK 10 AUDIO. Love and Pride 08. 95 KB 00 Metallica album art 02. Get access to over 600 exclusive live recordings with a nugs. Full music, album, mp3, clip downloads. Index of led zeppelin flac Index of led zeppelin flac. Metallica - Master of Puppest (1986) Remastered FLAC / MP3 Band: Metallica. Tracklist: 01 – Enter Sandman (Live In Mexico City) 02 – Creeping Death (Live In Mexico City) 03 – Harvester Of Sorrow (Live In Mexico City). Leaked Release - August 14, 2020 Genre - Indie Rock Quality - MP3, 320 kbps CBR / FLAC. Rivertz (1902–1988), I discovered a number of manuscripts – simple arrangements of familiar Christmas carols that the composer had left behind. AAC 256 kbps via Mega (Link) whose ouster from Metallica gave rise to an improbably long career with Megadeth, It is an index to content. September 2010, 13:05. Metallica (commonly known as The Black Album) is the fifth studio album by American heavy metal band Metallica, released on August 12, 1991, through Elektra Records. You should be able to use MP3tag to assign the cover type attribute to the images in your files. Metallica & San Francisco Symphony - S&M2 2019 BDRemux 1080p AVC MKV x264 DTS-HDMA 5. 8 GB: gheTTo: TOOL DISCOGRAPHY [24 96] REMASTERED - QOBUZ - FLAC: 0 / 0: 2020-08-29: 8. cue) Tracklist: 01. Christian Klinkenberg - Der Gletscher (2020) [24bit FLAC] Top Posts. Reload debuted at number one on the Billboard 200, selling 436,000 copies in its first week. 倖田來未 – XXKK download zip rar mp3 aac m4a flac…. Filename F:\Works\CD-Rips\Metal Ballads Volume 1 (1993)\1\Various Artists - 1993 - Metal Ballads Volume 1\01. Metallica / Six Feet Down Under EP. Rammstein(FLAC) by rammstein. You Re All Alone 02. Responsible for bringing the genre back to Earth, the bandmates looked and talked like they were from the street, shunning the usual rockstar games of metal musicians during the early ’80s. Rune Alver. Metallica - Black Album [SHM-CD] - 2008 FLAC Tracklist: • Enter Sandman 5:31 • Sad But True 5:24 • Holier Than Thou 3:47 • The Unforgiven 6:27. flac" WAVE. I restored those entries and have temporarily disabled the delete and edit functions to prevent further damage. Tags: Metallica. Fake Servant of God 2. Metallica es una banda de Thrash Metal originaria de Los Ángeles, pero con base en San Francisco desde febrero de 1983. zip to FLAC 3) converted FLAC to WAV @24/96 via Audacity 4) inserted WAV files in Sony Vegas (non-linear video editing program) on the Timeline 5) rendered separate projects for audio and video. PERFORMER "Metallica" INDEX 01 08:15:27 TRACK 03 AUDIO TITLE "Welcome Home (Sanitarium)" PERFORMER "Metallica" INDEX 00 18:37:24 INDEX 01 18:37:25 TRACK 04 AUDIO TITLE "Cliff Burton Bass Solo" PERFORMER "Metallica" INDEX 00 25:09:64 INDEX 01 25:09:65 TRACK 05 AUDIO TITLE "Damage, Inc. flac" WAVE TRACK 07 AUDIO TITLE "I Wish It Would Rain Down" PERFORMER "Phil Collins" INDEX 01 00:00:00 FILE "Music/FLAC/Phil Collins/But Seriously/1-04-FLAC-Something Happened On The Way To Heaven-04-51. Soon, the two had recruited Hetfield’s friend and housemate Ron McGovney to play bass, Dave Mustaine to play lead guitar, and taken. 28 MB | File Count : 1 | Create Time : 2015-08-10. 00 Peak level 100. Reload is the seventh studio album by American heavy metal band Metallica, released on November 18, 1997 by Elektra Records. Christian Klinkenberg – Der Gletscher (2020) [24bit FLAC] Top Posts. File sizes are much larger than MP3s. Lolathon stream on 2018-12-29 21:18:18 - evaluate stats, view chart, watch VOD. Tank - live at Markthalle, Hamburg, December 9, 1984 (during the tour w/ Metallica). Metallica 2004-10-25 Boston, MA FLAC/AUD. Kill 'Em All {2010 SHM-CD Cardboard Sleeve,Limited Release, UICY94662} Ride The Lightning {DCC 24k Gold Remaster}. mp3 (4:17)Slipknot - (sic). 0 % Track quality 100. Metallica – Metallica (Remastered) (2020) FLAC: rapidgator: Download. More Love - Songs. 41 GB (FLAC Stereo) | 3% RAR Recovery Label: Elektra | USA | Cat#: 61113-9 | Genre: Thrash Metal After the muddled production and ultracomplicated song structures of …And Justice for All, Metallica decided that they had taken the progressive elements of their music as far as they could and. 1 kHz (Tracks) Artist: Mathusalemherod Title: Discography (2018-2020) Released: 2020 Style: Power Electronic, Industrial, Ambient RAR Size: 894 Mb Tracklist & Download Links. Bittersweet. Soon, the two had recruited Hetfield’s friend and housemate Ron McGovney to play bass, Dave Mustaine to play lead guitar, and taken. VH1 Behind The Music Remastered Metallica free full download. Interview, Keith Relf - 00:56 03. Showing 1 - 12 of 332. MISERY INDEX have released six studio albums, several EPs and performed over 1400 concerts in 45+ countries. zip : 2,90 GB…. Parent Directory 01-Feb-2008 23:48 - 07 Fade to black (Metallica cover). 2 or any later version published by the Free Software Foundation; with no Invariant Sections, no Front-Cover Texts, and no Back-Cover Texts. Total Size: 5. 8 GB: gheTTo: TOOL DISCOGRAPHY [24 96] REMASTERED - QOBUZ - FLAC: 0 / 0: 2020-08-29: 8. These are FLAC files and they are high-res. download VH1 Behind The Music Remastered Metallica search results hosted on nitroflare uploaded rapidgator uploadrocket torrent uploadex sendspace with crack serial keygen. Metallica & San Francisco Symphony - S&M2 (2020) [BDRip, 720p] S&M2, the live concert film from Metallica & The San Francisco Symphony, is the concert event of the year! Ozzy Osbourne - Live At Budokan (2002) DVD A concert of the Great and Terrible Ozzy, recorded on February 15, 2002 at the famous Budokan Hall in Tokyo. Synopsis: Compiled from available sources, many amateur shot, LTSO II covers tour footage from late-92, through 93, up to the last show in March 1994 and features live performances, banter, interviews, rare songs, and fan footage - providing an insight into the band's final. Metallica / Orgullo, Pasion, Y Gloria (CD 1). High Resolution Downloads, Classical Music, Jazz Music, Rare Audiophile, DSD Downloads, Pure Audio. AC/DC es un grupo de hard rock formado en 1973 en Sídney, Australia, por los hermanos de origen escocés, Malcolm y Angus Young. Metallica - Nothing Else Matters. mp3 (4:17)Slipknot - (sic). 2 or any later version published by the Free Software Foundation; with no Invariant Sections, no Front-Cover Texts, and no Back-Cover Texts. Metallica & The San Francisco Symphony - S&M 2 (2020) + Blu-Ray + BDRip; Napalm Death - Throes of Joy in the Jaws of Defeatism (2020) filecrypt + turbobit have some problems; Ensiferum - Thalassic (Deluxe Edition) (2020) Static-X - Project Regeneration, Vol. Out of Body NEEDTOBREATHE MP3 Music. Metallica is easily one of the best, most influential heavy metal band of the '80s. mp3 30-Jan-2008 20:35 ACDC - She Shook Me All Night Long(Remix featuring Bon Jovi, Metallica, Nirvana, Def Leppard, Van Halen, and Guns N' Roses). 00 Peak level 100. Holodox 02. Trading Death Debut EP of the two-man death metal band Inert. Important Notice! Someone tried to vandalise the database by deleting about 76k entries. Soon, the two had recruited Hetfield's friend and housemate Ron McGovney to play bass, Dave Mustaine to play lead guitar, and taken the name. Metallica - S&M (2016) Hi-Res Hi-Res 24 bit / Rock / Metal 12-03-2019, 03:42 943 0 aleXs All albums Metallica Michael Kamen The San Francisco Symphony Orchestra Quality: FLAC 24 bit / 96 kHz (Tracks). The band was formed in 1981 in Los Angeles by vocalist/guitarist James Hetfield and drummer Lars Ulrich, and has been based in San Francisco for most of its career. com helps you download free FLAC, M4A, Mp3 songs. FLAC is my choice, ipods prior to gen6s were able to run cracked firmware, so FLAC is supported on them, gen6 run encrypted firmware and no ones released something that enables FLAC to them yet only reason i got an ipod is because it's the best unit to integrate into my car – nothing else has such a wide range of accessories so that it can. EAC extraction logfile from 22. Shackled to the Chains of Command 3. Metallica - City Of Rock at Rock in Rio, BR - 2015-09-19 [24-48 HD FLAC] Metallica - City Of Rock at Rock in Rio, Rio de Jainero, Brazil September 19, 2015 Format: WEB, 21 files FLAC, 24bit 48kHz, Offi. September 2010, 13:05. Love and Pride 08. 41 GB (FLAC Stereo) | 3% RAR Recovery Label: Elektra | USA | Cat#: 61113-9 | Genre: Thrash Metal After the muddled production and ultracomplicated song structures of …And Justice for All, Metallica decided that they had taken the progressive elements of their music as far as they could and. Quality: FLAC (image+. FLAC is perhaps the best audio quality you can get, but the files are also huge. Metallica - Essentials + FLAC DVDRiP, télécharger Metallica - Essentials + FLAC, downlaod Metallica - Essentials + FLAC, télécharger Metallica - Essentials + FLAC gratuitement, Metallica - Essentials + FLAC uptobox, Metallica - Essentials + FLAC 1fichier, Metallica - Essentials + FLAC uploaded, Metallica - Essentials + FLAC free, Metallica - Essentials + FLAC VF Vostfr. 99 prebeta 5 from 4. Metallica / S&M2 Vinyl Box Sets Deluxe Edition Box Set: 4 LPs (2 half/half LPs and 2 half/half Splatter LPs) + 2 CDs + Blu-Ray + 28-Page Book + 24" x 36" Poster + Sheet Music + 5 Guitar Picks + Download Code ABLN 043BOX $129. Your absolutely right, To Live Is To Die is a fantastic song. Kill 'Em All {2010 SHM-CD Cardboard Sleeve,Limited Release, UICY94662} Ride The Lightning {DCC 24k Gold Remaster}. 07-05-2020 11:37 PM by belzebub67. Looking for a CD for my car - looking for a mix of metal songs on one CD if possible. Exact Audio Copy V0. 2M: 002) Van Halen - Eruption. This domain name has been seized by ICE - Homeland Security. [ Download FLAC] [ Download MP3] Password: calf-music. Metallica - Metallica [Japan, SHM-CD] (1991/2010) FLAC rutor. The Dividing Line 5. 21Kb: May 27 2007. Index of led zeppelin flac Index of led zeppelin flac. January 2013, 18:22 Metallica / Master of Puppets Used drive : Optiarc DVD RW AD-5240S Adapter: 3 ID: 0 Read mode : Secure Utilize accurate stream : Yes Defeat audio cache : Yes Make use of C2 pointers : No Read offset correction : 48. Le troisième album de Metallica est un condensé compact et puissant de maîtrise technique, créativité et de riffs légendaires. Rendered audio @24/96 PCM. AAC 256 kbps via Mega (Link) whose ouster from Metallica gave rise to an improbably long career with Megadeth, It is an index to content. Trading Death Debut EP of the two-man death metal band Inert. Head of the Snake 05. net subscription; start your FREE 30-day trial now!. 6M: 003) Lynyrd Skynyrd - Freebird. Thank you, I'll give it a try. flac" WAVE TRACK 01 AUDIO PERFORMER "Metallica" ISRC GBCBR1200300 INDEX 01 41:31:24 TRACK 10 AUDIO. Soon, the two had recruited Hetfield's friend and housemate Ron McGovney to play bass, Dave Mustaine to play lead guitar, and taken the name. We put together a catalog of MP3/FLAC music and decided to make it available on the Web. CD2/ 01 – Through the Never. mp3: Autograph: Turn Up the Radio: Monsters of Rock, Metal: MPEG 1 Layer III: Badlands - Dreams in the Dark. org 478 MB 2010. A Premium subscription allows you to enjoy additional benefits to the free service that Rapidgator offers. Reload is the seventh studio album by American heavy metal band Metallica, released on November 18, 1997 by Elektra Records. Exact Audio Copy V0. Christian Klinkenberg - Der Gletscher (2020) [24bit FLAC] Top Posts. The premier hillbilly parody act get the Bear Family Records red carpet treatment with this CD reissue of the label's 1989 vinyl compilation. in April 2015. File Size : 523. EAC extraction logfile from 4. EAC extraction logfile from 22. Do these CDs even exist lol. Metallica-And Justice For All-JP REMASTERED-CD-FLAC-2006-DeVOiD (Flac) Metallica-Caught In The Act-BOOTLEG-CD-FLAC-1990-DeVOiD (Flac) Metallica-Damaged Justice 88-89-BOOTLEG-2CD-FLAC-1991-DeVOiD (Flac) Metallica-Heavy Best-BOOTLEG-CD-FLAC-1993-DeVOiD (Flac) Metallica-Horsemen Of The Apokalypse-BOOTLEG-CD-FLAC-1990-DeVOiD (Flac) Metallica-Rare. Metallica & San Francisco Symphony - S&M2 (2020) [BDRip, 720p] S&M2, the live concert film from Metallica & The San Francisco Symphony, is the concert event of the year! Ozzy Osbourne - Live At Budokan (2002) DVD A concert of the Great and Terrible Ozzy, recorded on February 15, 2002 at the famous Budokan Hall in Tokyo. flac" WAVE TRACK 01 AUDIO TITLE "Battery" PERFORMER "Metallica" REM COMPOSER "Metallica" INDEX 01 00:00:00 TRACK 02 AUDIO TITLE "Master Of Puppets" PERFORMER "Metallica" REM COMPOSER "Metallica" INDEX 01 05:12:27 TRACK 03 AUDIO TITLE "The Thing That Should Not Be" PERFORMER "Metallica" REM COMPOSER "Metallica". Note that the compression ratios of all lossless codecs falls in a quite narrow range; the difference between the very best and very worst is only around 7%, and only 4% for the practical codecs. Metallica - City Of Rock at Rock in Rio, BR - 2015-09-19 [24-48 HD FLAC] Metallica - City Of Rock at Rock in Rio, Rio de Jainero, Brazil September 19, 2015 Format: WEB, 21 files FLAC, 24bit 48kHz, Offi. 41 GB (FLAC Stereo) | 3% RAR Recovery Label: Elektra | USA | Cat#: 61113-9 | Genre: Thrash Metal After the muddled production and ultracomplicated song structures of …And Justice for All, Metallica decided that they had taken the progressive elements of their music as far as they could and. The Gallery 6. 99 per album for lossy compression (Ogg Vorbis format) $8. Maybe he means a High-Res FLAC file such as a 24/96 or 24/192 FLAC file that was purchased from some on-line store (e. I bought some FLAC files (Metallica at Yankee Stadium from the Metallica website) and want to play them in iTunes. Both FLAC & ALAC are the equivalent of listening to a CD. 69 GB (DVD-A) + 3. Reload is the seventh studio album by American heavy metal band Metallica, released on November 18, 1997 by Elektra Records. Tags: Metallica. Metallica - Metallica [Japan, SHM-CD] (1991/2010) FLAC rutor. The Gallery 6. High Resolution Downloads, Classical Music, Jazz Music, Rare Audiophile, DSD Downloads, Pure Audio. Metallica Close. Channel: Sevrill's Loved Tracks. Torrent: Metalllica - Metallica (The Black Album) (1991). Download high resolution audio files from Norwegian 2L in stereo 96kHz, 192kHz, DXD, DSD and 5. Metallica / S&M2 Vinyl Box Sets Deluxe Edition Box Set: 4 LPs (2 half/half LPs and 2 half/half Splatter LPs) + 2 CDs + Blu-Ray + 28-Page Book + 24" x 36" Poster + Sheet Music + 5 Guitar Picks + Download Code ABLN 043BOX $129. 1 LPCM-CHDBits; 陰陽路3:升棺發財 (1998) Troublesome Night 3 1998 BluRay 1080p AVC TrueHD5. net subscription. September 2010, 13:05. they are one of the greatests bands ever. Metallica music and DVDs in formats to suit everyone! Menu Search Search Login. flac" WAVE TRACK 01 AUDIO TITLE "Battery" PERFORMER "Metallica" REM COMPOSER "Metallica" INDEX 01 00:00:00 TRACK 02 AUDIO TITLE "Master Of Puppets" PERFORMER "Metallica" REM COMPOSER "Metallica" INDEX 01 05:12:27 TRACK 03 AUDIO TITLE "The Thing That Should Not Be" PERFORMER "Metallica" REM COMPOSER "Metallica". FLAC is a free codec in the fullest sense. Metallica - City Of Rock at Rock in Rio, BR - 2015-09-19 [24-48 HD FLAC] Metallica - City Of Rock at Rock in Rio, Rio de Jainero, Brazil September 19, 2015 Format: WEB, 21 files FLAC, 24bit 48kHz, Offi. Metallica es una banda de Thrash Metal originaria de Los Ángeles, pero con base en San Francisco desde febrero de 1983. flac" WAVE TRACK 01 AUDIO TITLE "Battery" PERFORMER "Metallica" REM COMPOSER "Metallica" INDEX 01 00:00:00 TRACK 02 AUDIO TITLE "Master Of Puppets" PERFORMER "Metallica" REM COMPOSER "Metallica" INDEX 01 05:12:27 TRACK 03 AUDIO TITLE "The Thing That Should Not Be" PERFORMER "Metallica" REM COMPOSER "Metallica". Quality: FLAC (image+. Ah, the joy of humble beginnings… Metallica, one of the biggest selling acts in American history, were born on October 28, 1981 when drummer Lars Ulrich and guitar player/singer James Hetfield got together via Ulrich's LA Recycler newspaper ad. Bittersweet. *edit* I will add the Target Special Edition tracks in FLAC as soon as I can. 1 will produce a regular FLAC file that is 16/44. We invite you to join us in this evaluation of future consumer delivery formats. Leper Messiah 07. Full music, album, mp3, clip downloads. com [info] TITLE : Sad But True [info] DATE : 1991 [info] track : 02 [info] TRACKTOTAL : 12 [info. Metallica - Essentials + FLAC DVDRiP, télécharger Metallica - Essentials + FLAC, downlaod Metallica - Essentials + FLAC, télécharger Metallica - Essentials + FLAC gratuitement, Metallica - Essentials + FLAC uptobox, Metallica - Essentials + FLAC 1fichier, Metallica - Essentials + FLAC uploaded, Metallica - Essentials + FLAC free, Metallica - Essentials + FLAC VF Vostfr. LTSO II - IN UTERO (By DCMA) Live! Tonight! Sold Out!! Part II - In Utero Era. Metallica - 1996-11-27 - Copenhagen, DK (FM/FLAC) : 0 : 0 April 28, 2019, 8:49 am (FM broadcast FLAC)Metallica Forum Copenhagen, Denmark November 27, 1996FM Broadcast's To Dat From The KRW_CO CollectionLINEAGE FM BROADCAST TO DAT TO DAT CLONE FIBER OPTIC CLONE TO CDR KRW TRANSFER TO. The most recent full-length "Rituals of Power" was released in March 2019 on Season of Mist. The Hangman 05. Flying In Time 07. Metallica – Metallica (Remastered) (2020) FLAC: rapidgator: Download. com , the definitive online Discography for Metallica Vinyl Bootlegs on the net. Reload is the seventh studio album by American heavy metal band Metallica, released on November 18, 1997 by Elektra Records. com you can download lossless music in popular formats FLAC, APE, ALAC, MP3, M4A. The album is a follow-up to Load, released the previous year, and Metallica's last studio album to feature bassist Jason Newsted. Punish My Heaven 2. 2: Metal: Free Lossless Audio Codec: Badlands - Dreams In The Dark. ADTR, Ghost, Metallica, Sabaton, Alestorm, Pantera and SOAD would be preferably on the CD but not a must. I know Ive had to copy and register. 7 GB Metallica Master Of Puppets (Deluxe Box Set Remastered)-BONUS TRACKS-WEB-2017-ENTiTLED 1. Fue fundada en 1981 en Los Ángeles por Lars Ulrich y James Hetfield, a los que se les unirían Dave Mustaine y Cliff Burton. August 2011 EAC extraction logfile from 5. Quality: FLAC 24 bit / 44. The BBC FLAC streams are around 550 kbits/sec -- far higher than the quite good 320 kbits/sec streams that you can use on the catch up services. Parent Directory-15-14-13-12-11-10-09-08-07-06-05-04-03-02-01: page 01 of 05 +01 +02 +03 +04 +05 +06 +07 +08 +09 +10 +11 +12 +13 +14 +15 <- Back | Next page ->. 21Kb: May 27 2007. This website is an external content index. Metallica - Metallica [Japan, SHM-CD] (1991/2010) FLAC rutor. FLAC is a free codec in the fullest sense. I bought some FLAC files (Metallica at Yankee Stadium from the Metallica website) and want to play them in iTunes. ADTR, Ghost, Metallica, Sabaton, Alestorm, Pantera and SOAD would be preferably on the CD but not a must. com helps you download free FLAC, M4A, Mp3 songs. Codec: Free Lossless Audio Codec (FLAC) Version: reference libFLAC 1. Important Notice! Someone tried to vandalise the database by deleting about 76k entries. After the misfire that was St. Origen: Los Ángeles, California, Estados Unidos Género(s): Heavy Metal // Thrash Metal // Hard rock. mp3 (3:23)Slipknot - Eyeless. Metallica - City Of Rock at Rock in Rio, BR - 2015-09-19 [24-48 HD FLAC] Metallica - City Of Rock at Rock in Rio, Rio de Jainero, Brazil September 19, 2015 Format: WEB, 21 files FLAC, 24bit 48kHz, Offi. FILE "VA - Re-Machined- A Tribute To Deep Purple's Machine Head. Recent Entries; 1999-07-27 · Roger Waters @ Gund Arena, Cleveland · Soundcheck · 13 hours ago; 2018-08-31 · Roger Waters @ Olympiski, Moscow · Olympiski · 3 days ago; 2000-04-29 · Oasis @ Maple Leaf Gardens, Toronto · RadioSonic · 5 days ago. Metallica is easily one of the best, most influential heavy metal band of the ’80s. Metallica (commonly known as The Black Album) is the fifth studio album by American heavy metal band Metallica, released on August 12, 1991, through Elektra Records. Flying In Time 07. info open music storage - [ Traduzca esta página ] Slipknot - Live At Dynamo 2000 Year: 2000 Genre: Alternative Track list: Slipknot - 742617000027. org - The Unofficial Metallica site and your heaven for all things bootlegged!. VH1 Behind The Music Remastered Metallica free full download. 19Mb: September 10 2007: Metallica - Bootleg Tracks - 07 - Imperial March. net subscription. A Premium subscription allows you to enjoy additional benefits to the free service that Rapidgator offers. Tracklist: 01. Metallica - Discography [17 albums] [1983-2019] [FLAC] [TRACKS +. Loading Error · · · · · · · · · ·. Used drive : HL-DT-STDVDRAM GSA-H10N Adapter: 0 ID: 0. Top Media News ; 02/09/2020 Cut Throat City 2020 720p HDCAM-C1NEM4; 31/08/2020. 30 MB Metallica - Death Magnetic ( 2008 ) WMA320 File Size : 176. Lossless FLAC streaming of BBC Radio 3 is here with their Concert Sound stream thanks to the team at BBC Taster. com | Digital Booklet. Metallica - Metallica [Japan, SHM-CD] (1991/2010) FLAC rutor. 1997 Label: Columbia - CT 67862 • Format: Cassette Album • Country: Canada • Genre: Rock • Style: Alternative Rock Coil is the fifth studio album by Toad the Wet Sprocket released in This was the band's last album for 16 years, until 's New Constellation. hi-res music Addeddate 2019-05-09 19:10:46 External_metadata_update 2019-07. PERFORMER "Metallica" INDEX 01 08:15:27 TRACK 03 AUDIO TITLE "Welcome Home (Sanitarium)" PERFORMER "Metallica" INDEX 00 18:37:24 INDEX 01 18:37:25 TRACK 04 AUDIO TITLE "Cliff Burton Bass Solo" PERFORMER "Metallica" INDEX 00 25:09:64 INDEX 01 25:09:65 TRACK 05 AUDIO TITLE "Damage, Inc. 01 MB | File count : 17 | Time : 2015-08-12 00 Metallica album art 01. Metallica - S&M (2016) Hi-Res Hi-Res 24 bit / Rock / Metal 12-03-2019, 03:42 943 0 aleXs All albums Metallica Michael Kamen The San Francisco Symphony Orchestra Quality: FLAC 24 bit / 96 kHz (Tracks). Rendered audio @24/96 PCM. September 2010, 13:05. Synopsis: Compiled from available sources, many amateur shot, LTSO II covers tour footage from late-92, through 93, up to the last show in March 1994 and features live performances, banter, interviews, rare songs, and fan footage - providing an insight into the band's final. Lady Lightning 09. Anette Maiburg, Alexandra Cravero, Emmanuel Ceysson, Karina Buschinger, Wen Xiao Zheng, Guido Schiefen, Mathias Haus. FLAC decoding is the fastest among lossless codecs and its compression is within 3% of even the most complex codecs. Tracklist: 01. FLAC via Mega (Link). Site details: www. Sus álbumes se han vendido en numerosos países, en un total estimado de 200 millones de copias, embarcándose en giras multitudinarias por todo el mundo, y sus éxitos han musicalizado varias producciones cinematográficas sobresalientes. EAC extraction logfile from 22. In the course of preparations to record my album, «Spill og Dans», featuring the piano music of Johannes M. Metallica / Six Feet Down Under EP. zip : 2,90 GB…. Metallica - Discography [17 albums] [1983-2019] [FLAC] [TRACKS +. Shackled to the Chains of Command 3. Looking for a CD for my car - looking for a mix of metal songs on one CD if possible. MQA and FLAC are lossless encodings derived directly from our original production masters. ADTR, Ghost, Metallica, Sabaton, Alestorm, Pantera and SOAD would be preferably on the CD but not a must. net subscription; start your FREE 30-day trial now!. Used drive : HL-DT-STDVDRAM GSA-H10N Adapter: 0 ID: 0. Fue fundada en 1981 en Los Ángeles por Lars Ulrich y James Hetfield, a los que se les unirían Dave Mustaine y Cliff Burton. 61 KB 01 Frantic. File sizes are much larger than MP3s. Flying In Time 07. 2: Metal: Free Lossless Audio Codec: Badlands - Dreams In The Dark. Infectors 5. Upon His Return 2. Metallica / S&M2 Vinyl Box Sets Deluxe Edition Box Set: 4 LPs (2 half/half LPs and 2 half/half Splatter LPs) + 2 CDs + Blu-Ray + 28-Page Book + 24" x 36" Poster + Sheet Music + 5 Guitar Picks + Download Code ABLN 043BOX $129. HDLight 720p (x264) HDLight 1080p (x264) BDRiP 720p (XViD) Nouveauté Films HD. Metallica Monday, Tonight's Online Show - Live In London 2016. Metallica / Orgullo, Pasion, Y Gloria (CD 1). Email This BlogThis! Share to Twitter Share to Facebook Share to Pinterest. But as mville points out *ripping* a CD that is 16/44. Hunted Like the Prey that You Are (Feat Mark Kloeppel, Misery Index) Latest Warpath release. Madonna 'Hidden Gems Volume 2' 2CD Limited Edition 2018 (2018 Martigen : CDHG2) Released: 2018 Encoded: 320 Kbps MP3 & FLAC A collection of demos, unreleased tracks, B-sides and rarities. A Premium subscription allows you to enjoy additional benefits to the free service that Rapidgator offers. HAZRAT ALI AS JANG_E_UHD ME Jang e Uhd Me Hazrat ALI as K Kirdar Ka Jaeza 2 Marahil Yani Musalmano Ki Fatih Or Shikast K Pas e Manzar. dll files there when. Last Entry by davebowman 1969-07-30 - Procol Harum Schaefer Music Festival (late show) - FLAC Date Entered: 2020-07-24 12:49:25. Bittersweet. August 2011 EAC extraction logfile from 5. In the course of preparations to record my album, «Spill og Dans», featuring the piano music of Johannes M. Metallica - Master of Puppest (1986) Remastered FLAC / MP3 [ Download FLAC] [ Download MP3] Password: calf-music. zip files 2) extracted all files from. Under the Gun 09. These are FLAC files and they are high-res. 倖田來未 – XXKK download zip rar mp3 aac m4a flac…. com you can download lossless music in popular formats FLAC, APE, ALAC, MP3, M4A. 41 GB (FLAC Stereo) | 3% RAR Recovery Label: Elektra | USA | Cat#: 61113-9 | Genre: Thrash Metal After the muddled production and ultracomplicated song structures of …And Justice for All, Metallica decided that they had taken the progressive elements of their music as far as they could and. Metallica is easily one of the best, most influential heavy metal band of the ’80s. September 2010, 13:05. 99 prebeta 5 from 4. 2016) flac 16b + [email protected] necrocoital amputorgy 2. FILE "Metallica - Master Of Puppets 01. These are available in all major digital formats – MP3, WAV, FLAC, AIFF and ALAC – while electronic musicians are also catered for via a wide range of downloadable stems, track parts and sample packs from some of the biggest names in the industry. com helps you download free FLAC, M4A, Mp3 songs. org 478 MB 2010. PERFORMER "Metallica" INDEX 01 08:15:27 TRACK 03 AUDIO TITLE "Welcome Home (Sanitarium)" PERFORMER "Metallica" INDEX 00 18:37:24 INDEX 01 18:37:25 TRACK 04 AUDIO TITLE "Cliff Burton Bass Solo" PERFORMER "Metallica" INDEX 00 25:09:64 INDEX 01 25:09:65 TRACK 05 AUDIO TITLE "Damage, Inc. Metallica - S&M (2016) Hi-Res Hi-Res 24 bit / Rock / Metal 12-03-2019, 03:42 943 0 aleXs All albums Metallica Michael Kamen The San Francisco Symphony Orchestra Quality: FLAC 24 bit / 96 kHz (Tracks). Artwork 300 DPI Cue Non Compliant, Log, M3U, info. 61 GB (FLAC Mch) + 1. The premier hillbilly parody act get the Bear Family Records red carpet treatment with this CD reissue of the label's 1989 vinyl compilation. August 2011 EAC extraction logfile from 5. Lolathon stream on 2018-12-29 21:18:18 - evaluate stats, view chart, watch VOD. 19Mb: September 10 2007: Metallica - Bootleg Tracks - 07 - Imperial March. EAC extraction logfile from 22. 2: Metal: Free Lossless Audio Codec: Badlands - Dreams In The Dark. The Gallery 6. Metallica - Black Album [SHM-CD] - 2008 FLAC Tracklist: • Enter Sandman 5:31 • Sad But True 5:24 • Holier Than Thou 3:47 • The Unforgiven 6:27. The album was produced by Rick Rubin, marking the band's first album since And Justice for All (1988) not to be produced by longtime collaborator Bob Rock. Leaked Release - August 14, 2020 Genre - Indie Rock Quality - MP3, 320 kbps CBR / FLAC. Used drive : HL-DT-STDVDRAM GSA-H10N Adapter: 0 ID: 0. A Premium subscription allows you to enjoy additional benefits to the free service that Rapidgator offers. Metallica / Orgullo, Pasion, Y Gloria (CD 1). The Hangman 05. Get access to over 600 exclusive live recordings with a nugs. Metallica es una banda de Thrash Metal originaria de Los Ángeles, pero con base en San Francisco desde febrero de 1983. FILE "VA - Re-Machined- A Tribute To Deep Purple's Machine Head. Metallica - City Of Rock at Rock in Rio, BR - 2015-09-19 [24-48 HD FLAC] Metallica - City Of Rock at Rock in Rio, Rio de Jainero, Brazil September 19, 2015 Format: WEB, 21 files FLAC, 24bit 48kHz, Offi. mp3 30-Jan-2008 20:35 ACDC - She Shook Me All Night Long(Remix featuring Bon Jovi, Metallica, Nirvana, Def Leppard, Van Halen, and Guns N' Roses). Parent Directory - 001) Led Zeppelin - Stairway to Heaven. AAC 256 kbps via Mega (Link) whose ouster from Metallica gave rise to an improbably long career with Megadeth, It is an index to content. Upon His Return 2. 19Mb: September 10 2007: Metallica - Bootleg Tracks - 07 - Imperial March. Synopsis: Compiled from available sources, many amateur shot, LTSO II covers tour footage from late-92, through 93, up to the last show in March 1994 and features live performances, banter, interviews, rare songs, and fan footage - providing an insight into the band's final. January 2013, 17:39. The Gallery 6. Nome Metalllica - Metallica (The Black Album) (1991) Source from ilCorSaRoBlu. 98 EP: Garage Days Re-Revisited [Japanese] (2018) FLAC. smoke on the water is so played out its ridiculous that has got to be the easiest non challenging song in the world, hell you can play it on one string. On various conversion and ripping software I notice when going to flac that a number (usually 5) is selectable; which I'm assuming is some sort of compression algorithm. Index of led zeppelin flac Index of led zeppelin flac. Soon, the two had recruited Hetfield's friend and housemate Ron McGovney to play bass, Dave Mustaine to play lead guitar, and taken the name. I usually like the songs that they barely ever play. Holodox 02. Top Media News ; 02/09/2020 Cut Throat City 2020 720p HDCAM-C1NEM4; 31/08/2020. Metallica – Master Of Puppets Remastered Expanded Edition Released: 2017 Genre: Metal Bitrate: FLAC & MP3 320 KBPS. FLAC is an excellent format of music, yes, but you don't want "true FLAC". cue) Tracklist: 01. Metallica es una banda de Thrash Metal originaria de Los Ángeles, pero con base en San Francisco desde febrero de 1983. 41 GB (FLAC Stereo) | 3% RAR Recovery Label: Elektra | USA | Cat#: 61113-9 | Genre: Thrash Metal After the muddled production and ultracomplicated song structures of …And Justice for All, Metallica decided that they had taken the progressive elements of their music as far as they could and. On the face of it, Metallica’s ninth studio album is a curious choice for the worst album in their canon. org - The Unofficial Metallica site and your heaven for all things bootlegged!. Metallica Close. , HD Tracks) or obtained from some other source. Download high resolution audio files from Norwegian 2L in stereo 96kHz, 192kHz, DXD, DSD and 5. The most recent full-length "Rituals of Power" was released in March 2019 on Season of Mist. More Love - Songs. 5 GB Metallica - Through the Never Soundtrack (2013) l Audio l English Album Track l 320Kbps l Mp3 238 MB. com you can download lossless music in popular formats FLAC, APE, ALAC, MP3, M4A. Site details: www. 1 kHz (Tracks) Artist: Mathusalemherod Title: Discography (2018-2020) Released: 2020 Style: Power Electronic, Industrial, Ambient RAR Size: 894 Mb Tracklist & Download Links. Looking for a CD for my car - looking for a mix of metal songs on one CD if possible. The Answer hands down is metallica Ac/Dc is a great band but they are more on the rock side. 7 GB Metallica Master Of Puppets (Deluxe Box Set Remastered)-BONUS TRACKS-WEB-2017-ENTiTLED 1. Exact Audio Copy V0. HAZRAT ALI AS JANG_E_UHD ME Jang e Uhd Me Hazrat ALI as K Kirdar Ka Jaeza 2 Marahil Yani Musalmano Ki Fatih Or Shikast K Pas e Manzar. mp3: Badlands: Dreams in. Parent Directory 01-Feb-2008 23:48 - 07 Fade to black (Metallica cover). FLAC is perhaps the best audio quality you can get, but the files are also huge. Parent Directory - 001) Led Zeppelin - Stairway to Heaven. Metallica - 1996-11-27 - Copenhagen, DK (FM/FLAC) : 0 : 0 April 28, 2019, 8:49 am (FM broadcast FLAC)Metallica Forum Copenhagen, Denmark November 27, 1996FM Broadcast's To Dat From The KRW_CO CollectionLINEAGE FM BROADCAST TO DAT TO DAT CLONE FIBER OPTIC CLONE TO CDR KRW TRANSFER TO. September 2010, 13:05. Amazon| Homepage. cue Битрейт аудио: lossless. Battle For The Universe 12. Tracklist: 01. 1997 Label: Columbia - CT 67862 • Format: Cassette Album • Country: Canada • Genre: Rock • Style: Alternative Rock Coil is the fifth studio album by Toad the Wet Sprocket released in This was the band's last album for 16 years, until 's New Constellation. Showing 1 - 12 of 332. Trading Death Debut EP of the two-man death metal band Inert. 07-05-2020 11:37 PM by belzebub67. These are available in all major digital formats – MP3, WAV, FLAC, AIFF and ALAC – while electronic musicians are also catered for via a wide range of downloadable stems, track parts and sample packs from some of the biggest names in the industry. cue,log,scans) Bitrate: Lossless Time: 67:33 + 76:08 Full Size: 1. Channel: Sevrill's Loved Tracks. mp3: 26-Jul-2008 19:50 : 1. com [info] TITLE : Sad But True [info] DATE : 1991 [info] track : 02 [info] TRACKTOTAL : 12 [info. Actually starting out on some metallica is not that bad of an idea, Kirk uses alot of scales and classical techniques that will come in real handy when you start to really get into guitar. Responsible for bringing the genre back to Earth, the bandmates. 95 KB 00 Metallica album art 02. The Gallery 6. I restored those entries and have temporarily disabled the delete and edit functions to prevent further damage. The process of publishing this music catalog is fully automated. Index of led zeppelin flac Index of led zeppelin flac. mp3: 26-Jul-2008 19:50 : 1. ADTR, Ghost, Metallica, Sabaton, Alestorm, Pantera and SOAD would be preferably on the CD but not a must. Download club dance music MP3 and FLAC, Dance compilation, Daily updates club music, Best mixes and sets, Radio show. Trading Death Debut EP of the two-man death metal band Inert. FLAC is perhaps the best audio quality you can get, but the files are also huge. The band was formed in 1981 in Los Angeles by vocalist/guitarist James Hetfield and drummer Lars Ulrich, and has been based in San Francisco for most of its career. 1997 Label: Columbia - CT 67862 • Format: Cassette Album • Country: Canada • Genre: Rock • Style: Alternative Rock Coil is the fifth studio album by Toad the Wet Sprocket released in This was the band's last album for 16 years, until 's New Constellation. [ Download FLAC] [ Download MP3] Password: calf-music. Metallica - Death Magnetic (2008, Remastered 2014). Metallica Close. This domain name has been seized by ICE - Homeland Security. I know Ive had to copy and register. hi-res music Addeddate 2019-05-09 19:10:46 External_metadata_update 2019-07. September 2010, 13:05. Fake Servant of God 2. Rivertz (1902–1988), I discovered a number of manuscripts – simple arrangements of familiar Christmas carols that the composer had left behind. net subscription; start your FREE 30-day trial now!. Download high resolution audio files from Norwegian 2L in stereo 96kHz, 192kHz, DXD, DSD and 5. Codec: Free Lossless Audio Codec (FLAC) Version: reference libFLAC 1. FLAC is perhaps the best audio quality you can get, but the files are also huge. 2016) flac 16b + [email protected] necrocoital amputorgy 2. This thread is archived. Sino tambien puedes buscar en Taringa!. Tracklist: 01. 21Kb: May 27 2007. mp3 30-Jan-2008 20:35 ACDC - She Shook Me All Night Long(Remix featuring Bon Jovi, Metallica, Nirvana, Def Leppard, Van Halen, and Guns N' Roses). Free Lossless Audio Codec: Autograph - Turn Up The Radio. cue,log,scans) Bitrate: Lossless Time: 67:33 + 76:08 Full Size: 1. Metallica – Metallica (Remastered) (2020) FLAC: rapidgator: Download. Metallica & San Francisco Symphony - S&M2 2019 BDRemux 1080p AVC MKV x264 DTS-HDMA 5. flac (vo) Rock , Metal Durée : 5812 secondesNombre de pistes : 17Piste 1 : Blackend (live)Piste 2 : For whom the bell tolls (live)Piste 3 : Welcome Home (Sanitarium) (live)Piste 4 : Leper Messiah (live)Piste 5 : Harvester of Sorrow (live)Piste 6 : Eye of the Beholder (live)Piste 7 : To Live is to Die (live)Piste 8 : Mast. :: Size: 348,81 MB (flac. Love and Pride 08. com , the definitive online Discography for Metallica Vinyl Bootlegs on the net. info open music storage - [ Traduzca esta página ] Slipknot - Live At Dynamo 2000 Year: 2000 Genre: Alternative Track list: Slipknot - 742617000027. King Of The Light 06. Quality: FLAC 16 bit / 44. Adam Dubin Showcases the Camaraderie of the Bay Area Thrash Metal Scene in 'Murder in the Front Row'. Preview, buy and download high-quality music downloads of Metallica by Metallica from 7digital Norge - We have over 30 million high quality tracks in our store. September 2010, 13:05. The Ambience Of War by Warpath, released 20 April 2017 1. Son of Certain Death 4. Qualità: Lossless. Metallica music and DVDs in formats to suit everyone! Menu Search Search Login. 99 prebeta 5 from 4. 0 % Test CRC E0013CA3 Copy CRC 312FD7E5 Track not present in AccurateRip database Copy OK Track 2. Read more here. Rendered audio @24/96 PCM. Looking for a CD for my car - looking for a mix of metal songs on one CD if possible. flac" WAVE. Someone told me next year!!!. We put together a catalog of MP3/FLAC music and decided to make it available on the Web. 69 GB (DVD-A) + 3. zip files 2) extracted all files from. Rune Alver. mp3 05 – Seek & Destroy. Hunted Like the Prey that You Are (Feat Mark Kloeppel, Misery Index) Latest Warpath release. mp3: Autograph: Turn Up the Radio: Monsters of Rock, Metal: MPEG 1 Layer III: Badlands - Dreams in the Dark. 倖田來未 – XXKK download zip rar mp3 aac m4a flac…. 0 beta 3 from 29. Torrent: [Flac] Progetto TNTMetal (Lossless Crew) Test&Copy + Cue + Cover - Top 500 RS. FLAC FLAC-HD MP3 Home Met Store Music. I know Ive had to copy and register. Index of led zeppelin flac Index of led zeppelin flac. Christian Klinkenberg - Der Gletscher (2020) [24bit FLAC] Top Posts. Quality: FLAC 24 bit / 44. Shackled to the Chains of Command 3. com you can download lossless music in popular formats FLAC, APE, ALAC, MP3, M4A. Metallica - Metallica (1991/2008) FLAC (tracks) 24 bit/96 kHz | Time - 1:02:40 minutes | 1. Metallica & San Francisco Symphony - S&M2 2019 BDRemux 1080p AVC MKV x264 DTS-HDMA 5. Filename F:\Works\CD-Rips\Metal Ballads Volume 1 (1993)\1\Various Artists - 1993 - Metal Ballads Volume 1\01. FILE "VA - Re-Machined- A Tribute To Deep Purple's Machine Head. Metallica / Metallica Жанр: Thrash Metal Страна-производитель диска: Japan Дата издания диска: 29/09/2010 Издатель (лейбл): Universal Music Japan Номер по каталогу: UICY-94 666 Страна: USA Аудио кодек: FLAC (*. Used drive : HL-DT-STDVDRAM GSA-H10N Adapter: 0 ID: 0. These are available in all major digital formats – MP3, WAV, FLAC, AIFF and ALAC – while electronic musicians are also catered for via a wide range of downloadable stems, track parts and sample packs from some of the biggest names in the industry. Apocalyptica - Plays Metallica by Four Cellos - A Live Performance (2018) FLAC Metallica - 2018-05-07- Stockholm, Sweden (2018) Hi-Res Metallica - The $5. Koda Kumi – XXKK. Diamond Dreamer 04. For pay services and obviously if you like the band, Metallica's live site is quite good and supports FLAC, I think Pearl Jam are also doing the same 2006-10-05, 09:38 #5 snarlydwarf. 0 % Test CRC E0013CA3 Copy CRC 312FD7E5 Track not present in AccurateRip database Copy OK Track 2. AAC 256 kbps via Mega (Link) whose ouster from Metallica gave rise to an improbably long career with Megadeth, It is an index to content. In the course of preparations to record my album, «Spill og Dans», featuring the piano music of Johannes M. org 478 MB 2010. 2: Metal: Free Lossless Audio Codec: Badlands - Dreams In The Dark. Total Size: 5. Lady Lightning 09. info 839 MB 2018-10-03 2 0 Metallica : Сквозь невозможное / Metallica : Through the Never (2013) BDRemux 1080p. 99 prebeta 5 from 4. flac" WAVE TRACK 01 AUDIO PERFORMER "Metallica" ISRC GBCBR1200300 INDEX 01 41:31:24 TRACK 10 AUDIO. in April 2015. Thank you, I'll give it a try. Metallica - Essentials + FLAC DVDRiP, télécharger Metallica - Essentials + FLAC, downlaod Metallica - Essentials + FLAC, télécharger Metallica - Essentials + FLAC gratuitement, Metallica - Essentials + FLAC uptobox, Metallica - Essentials + FLAC 1fichier, Metallica - Essentials + FLAC uploaded, Metallica - Essentials + FLAC free, Metallica - Essentials + FLAC VF Vostfr. 41 GB (FLAC Stereo) | 3% RAR Recovery Label: Elektra | USA | Cat#: 61113-9 | Genre: Thrash Metal After the muddled production and ultracomplicated song structures of …And Justice for All, Metallica decided that they had taken the progressive elements of their music as far as they could and. zip to FLAC 3) converted FLAC to WAV @24/96 via Audacity 4) inserted WAV files in Sony Vegas (non-linear video editing program) on the Timeline 5) rendered separate projects for audio and video. org 478 MB 2010. Metallica - Death Magnetic (2008, Remastered 2014). 69 GB (DVD-A) + 3. PERFORMER "Metallica" INDEX 01 08:15:27 TRACK 03 AUDIO TITLE "Welcome Home (Sanitarium)" PERFORMER "Metallica" INDEX 00 18:37:24 INDEX 01 18:37:25 TRACK 04 AUDIO TITLE "Cliff Burton Bass Solo" PERFORMER "Metallica" INDEX 00 25:09:64 INDEX 01 25:09:65 TRACK 05 AUDIO TITLE "Damage, Inc. We provide fast downloadable and reliable service for you. 61 GB (FLAC Mch) + 1. Metallica Monday, Tonight's Online Show - Live In London 2016. Fue fundada en 1981 en Los Ángeles por Lars Ulrich y James Hetfield, a los que se les unirían Dave Mustaine y Cliff Burton. Container: flac (tracks) Quality: Hi-Fi, lossless audio Sample Rate: 44100 kHz / 16 bit, Stereo Source: Digital download Album Artist/Name: Above and Beyond / The Club Mix Collection Genre: Dance, Trance Release Date: 2020-05-21 www publisher: hd24bit. Metallica Close. Origen: Los Ángeles, California, Estados Unidos Género(s): Heavy Metal // Thrash Metal // Hard rock. September 2010, 13:05. Someone told me next year!!!. Reload debuted at number one on the Billboard 200, selling 436,000 copies in its first week. flac': [info] Metadata: [info] ALBUM : Metallica (Studio Master 24bit/96kHz) [info] album_artist : Metallica [info] ARTIST : Metallica [info] GENRE : Pop/Rock [info] HDTRACKS : www. These are available in all major digital formats – MP3, WAV, FLAC, AIFF and ALAC – while electronic musicians are also catered for via a wide range of downloadable stems, track parts and sample packs from some of the biggest names in the industry. Leper Messiah 07. Bombers 13. Download club dance music MP3 and FLAC, Dance compilation, Daily updates club music, Best mixes and sets, Radio show. HighResolutionMusic.